#TITLE:Burning Desire;
#SUBTITLE:;
#ARTIST:Mega NRG Man;
#TITLETRANSLIT:;
#SUBTITLETRANSLIT:;
#ARTISTTRANSLIT:;
#GENRE:;
#CREDIT:;
#BANNER:ppp.jpg;
#BACKGROUND:;
#LYRICSPATH:;
#CDTITLE:;
#MUSIC:Bdesire.mp3;
#OFFSET:-1.120;
#SAMPLESTART:60.940;
#SAMPLELENGTH:12.000;
#SELECTABLE:YES;
#BPMS:0.000=148.120;
#STOPS:;
#DELAYS:;
#TIMESIGNATURES:0.000=4=4
;
#BGCHANGES:;
#KEYSOUNDS:;
#ATTACKS:;
// cache tags:
#FIRSTBEAT:20.000;
#LASTBEAT:223.000;
#SONGFILENAME:/Songs/ParaPara/Burning Desire/Burning Desire.sm;
#HASMUSIC:1;
#HASBANNER:1;
#MUSICLENGTH:95.849;
// end cache tags

//---------------para-single - Blank----------------
#NOTES:
     para-single:
     Blank:
     Beginner:
     1:
     0.244,0.291,0.188,0.323,0.047,115.000,18.000,31.000,0.000,0.000,0.000,0.000,-1.000,-1.000,0.244,0.291,0.188,0.323,0.047,115.000,18.000,31.000,0.000,0.000,0.000,0.000,-1.000,-1.000:
00000
00000
00000
00000
,
00000
00000
00000
00000
,
00000
00000
00000
00000
,
00000
00000
00000
00000
,
00000
00000
00000
00000
,
00002
00003
20000
30000
,
00000
00000
20002
30003
,
00002
00003
20000
30000
,
00000
00000
20002
30003
,
00002
00003
20000
30000
,
00000
00000
20002
30003
,
00002
00003
20000
30000
,
00000
00000
20002
30003
,
00000
00000
00000
00010
,
00000
00000
00000
01000
,
01000
00010
00010
01000
,
01000
00010
00010
01000
,
00100
00000
00010
00000
00001
00000
00000
00001
,
00010
00000
01000
00200
,
00000
00000
00000
00300
,
02020
03030
00000
00000
,
00000
00000
00000
00010
,
00000
00000
00000
01000
,
01000
00010
00010
01000
,
01000
00010
00010
01000
,
00000
02000
03000
00010
,
00000
00000
01000
00200
,
00000
00000
00000
00300
,
02020
03030
00000
00000
,
02020
00000
00000
00000
,
03030
00000
00100
00000
,
00010
00010
01000
01000
,
02020
03030
00000
00000
,
02020
00000
00000
00000
,
03030
00000
00100
00000
,
00010
00010
01000
01000
,
02020
03030
00000
00000
,
00100
01010
00000
01000
,
01000
00000
00010
00100
,
01000
00100
00010
00000
00010
00100
01000
00000
,
00000
01010
00000
01010
,
00100
01010
00000
01000
,
01000
00000
00000
00000
,
01000
00000
00100
00000
00010
00000
00001
00000
00000
00000
00000
00001
,
00000
00010
00000
00100
00000
01000
00000
00000
00000
00000
00000
00000
,
00000
00000
00001
00001
,
00100
01010
00000
01000
,
01000
00000
00010
00100
,
01000
00100
00010
00000
00010
00100
01000
00000
,
00000
01010
00000
01010
,
00100
01010
00000
01000
,
01000
00000
00000
00000
,
01000
00000
00100
00000
00010
00000
00001
00000
00000
00000
00000
00000
,
00000
00000
00000
00000
,
01000
00000
00100
00000
00010
00000
00001
00000
00000
00000
00000
00000
,
00000
00000
00100
00100
;

//---------------para-single - Blank----------------
#NOTES:
     para-single:
     Blank:
     Edit:
     1:
     0.244,0.291,0.188,0.323,0.047,115.000,18.000,31.000,0.000,0.000,0.000,0.000,-1.000,-1.000,0.244,0.291,0.188,0.323,0.047,115.000,18.000,31.000,0.000,0.000,0.000,0.000,-1.000,-1.000:
00000
00000
00000
00000
,
00000
00000
00000
00000
,
00000
00000
00000
00000
,
00000
00000
00000
00000
,
00000
00000
00000
00000
,
00002
00003
20000
30000
,
00000
00000
20002
30003
,
00002
00003
20000
30000
,
00000
00000
20002
30003
,
00002
00003
20000
30000
,
00000
00000
20002
30003
,
00002
00003
20000
30000
,
00000
00000
20002
30003
,
00000
00000
00000
00010
,
00000
00000
00000
01000
,
01000
00010
00010
01000
,
01000
00010
00010
01000
,
00100
00000
00010
00000
00001
00000
00000
00001
,
00010
00000
01000
00200
,
00000
00000
00000
00300
,
02020
03030
00000
00000
,
00000
00000
00000
00010
,
00000
00000
00000
01000
,
01000
00010
00010
01000
,
01000
00010
00010
01000
,
00000
02000
03000
00010
,
00000
00000
01000
00200
,
00000
00000
00000
00300
,
02020
03030
00000
00000
,
02020
00000
00000
00000
,
03030
00000
00100
00000
,
00010
00010
01000
01000
,
02020
03030
00000
00000
,
02020
00000
00000
00000
,
03030
00000
00100
00000
,
00010
00010
01000
01000
,
02020
03030
00000
00000
,
00100
01010
00000
01000
,
01000
00000
00010
00100
,
01000
00100
00010
00000
00010
00100
01000
00000
,
00000
01010
00000
01010
,
00100
01010
00000
01000
,
01000
00000
00000
00000
,
01000
00000
00100
00000
00010
00000
00001
00000
00000
00000
00000
00001
,
00000
00010
00000
00100
00000
01000
00000
00000
00000
00000
00000
00000
,
00000
00000
00001
00001
,
00100
01010
00000
01000
,
01000
00000
00010
00100
,
01000
00100
00010
00000
00010
00100
01000
00000
,
00000
01010
00000
01010
,
00100
01010
00000
01000
,
01000
00000
00000
00000
,
01000
00000
00100
00000
00010
00000
00001
00000
00000
00000
00000
00000
,
00000
00000
00000
00000
,
01000
00000
00100
00000
00010
00000
00001
00000
00000
00000
00000
00000
,
00000
00000
00100
00100
;
